Avaleht
uus teema   vasta Uudised »  Pressiteated »  Levira teeb otseülekandeid Eesti kaunimatest vaadetest märgi kõik teemad loetuks
märgi mitteloetuks
vaata eelmist teemat :: vaata järgmist teemat
Hinnavaatlus :: Foorum :: Uudised :: Ärifoorumid :: HV F1 ennustusvõistlus :: Pangalink :: Telekavad :: HV toote otsing
autor
sõnum Saada viide sõbrale. Teata moderaatorile
otsing:  
Tanel
HV Guru
Tanel

liitunud: 01.10.2001



Autoriseeritud ID-kaardiga

sõnum 14.02.2020 12:05 Levira teeb otseülekandeid Eesti kaunimatest vaadetest vasta tsitaadiga


AS Levira tegi oma kodulehel kõigile kättesaadavaks kaks esimest SkyView kaamera ülekannet. Esimene, juba aastavahetusest tuttav 278 meetri kõrgusel olev panoraamkaamera, asub Tallinna teletornis ja teine paikneb Levira Kohtla-Nõmme saatejaama mastis 226 meetri kõrgusel ning on suunatud Kesk-Eesti poole.

SkyView projekti raames kavatseb Levira pakkuda otseülekandeid Eesti kaunimatest vaadetest, tehes seda ettevõtte kõige kõrgematele teleteenuste mastidele paigaldatud kaameratega. Projekti raames võetakse kasutusele erinevaid tehnoloogiaid, et võimaldada interaktiivset pilti ja AI tehnoloogial põhinevat analüüsi.

Levira tehnoloogia- ja IT direktori Kristo Kaasani sõnul on ettevõttel plaanis sel aastal kaamerate võrgustikku laiendada. „SkyView tehisintellekti kasutades on võimalik avastada metsatulekahjusid, aidata sünoptikutel kiirelt saada ülevaadet Eesti ilmastikust ja erapilootidel ohutult õhku tõusta, teades, et sihtkohas on maandumiseks sobilik ilm. Leviral on plaanis SkyView kaamerate võrgustikku sel aastal veelgi laiendada ja ootame ka huvilisi ühendust võtma, kellele antud lahendustest kasu võiks olla või kes sooviks pilti kasutada,“ ütles Kaasan.

Kohtla-Nõmme kaamera vahetatakse lähiajal välja panoraamkaamera vastu, mis pakub senisest veelgi kaunimat vaadet.

Otseülekandeid on võimalik vaadata SIIT


Link


Allikas: https://levira.com/levira-teeb-otseulekandeid-eesti-kaunimatest-vaadetest/

_________________
HV valuutakalkulaator
HV kasutajate autode tabel
Kommentaarid: 451 loe/lisa Kasutajad arvavad:  :: 11 :: 7 :: 347
tagasi üles
vaata kasutaja infot saada privaatsõnum mine selle kasutaja kodulehele
rain69
HV kasutaja

liitunud: 17.11.2002




sõnum 15.02.2020 07:40 vasta tsitaadiga

lukuauk jälle 720p
oleks ikka 4K või 8K vot siis on elamus mis sugune
aga mingi 720p pole täis HD siis jama.
Kommentaarid: 1 loe/lisa Kasutajad arvavad:  :: 0 :: 0 :: 1
tagasi üles
vaata kasutaja infot saada privaatsõnum
napoleon
Unknown virus
napoleon

liitunud: 08.12.2008



Autoriseeritud ID-kaardiga

sõnum 15.02.2020 18:31 vasta tsitaadiga

rain69 kirjutas:
lukuauk jälle 720p
oleks ikka 4K või 8K vot siis on elamus mis sugune
aga mingi 720p pole täis HD siis jama.


Kingitud hobuse suhu ikka vaadatakse ja seda erilise põhjalikkusega.
Arvatavasti neil kaamera võimaldab palju kõrgemat resot, aga selle tasuta reaalajas striimimine pole teps mitte odav kui vaatajaid peaks rohkem kui käputäis olema.
Kommentaarid: 52 loe/lisa Kasutajad arvavad:  :: 0 :: 0 :: 46
tagasi üles
vaata kasutaja infot saada privaatsõnum
A.S.
HV Guru

liitunud: 27.10.2003



Autoriseeritud ID-kaardiga

sõnum 15.02.2020 19:55 vasta tsitaadiga

Huvitav, FFmpeg väidab momendil igatahes nii...
https://stream45.levira.com/ffskyview/teletorn.m3u8
Stream #0:0: Video: h264 (Main) ([27][0][0][0] / 0x001B), yuvj420p(pc, bt709), 3840x2160, 25 fps, 25 tbr, 90k tbn, 50 tbc
https://stream45.levira.com/ffskyviewkn/skyview2.m3u8
Stream #0:0: Video: h264 (High) ([27][0][0][0] / 0x001B), yuvj420p(pc, bt709), 1920x1080 [SAR 1:1 DAR 16:9], 15 fps, 25 tbr, 90k tbn, 30 tbc
 
Kommentaarid: 33 loe/lisa Kasutajad arvavad:  :: 0 :: 0 :: 33
tagasi üles
vaata kasutaja infot saada privaatsõnum
DeTHiCa.
HV Guru
DeTHiCa.

liitunud: 13.01.2006




sõnum 15.02.2020 20:40 vasta tsitaadiga

tegu põhiliselt staatilise pildiga, asi seda siis pakkida nii, et ka 4k oleks võimaldatud. kasvõi vähendada kaadrisagedust.
Kommentaarid: 144 loe/lisa Kasutajad arvavad:  :: 0 :: 0 :: 136
tagasi üles
vaata kasutaja infot saada privaatsõnum
mahno
HV kasutaja

liitunud: 25.07.2007




sõnum 16.02.2020 02:15 vasta tsitaadiga

Kõik on kangesti kõvad mehed rääkima, kuidas teha, kui ise tegema ei pea. Pange kaamera, striimige 8k pilti ja siis tulge õpetage teisi....
Kommentaarid: 19 loe/lisa Kasutajad arvavad:  :: 1 :: 0 :: 17
tagasi üles
vaata kasutaja infot saada privaatsõnum
entr0cks
HV kasutaja
entr0cks

liitunud: 01.08.2006




sõnum 16.02.2020 14:53 vasta tsitaadiga

Üks variant on üleslaadida ainult ühele kliendile - Youtube, Twitch vms kes lubab otseülekandeid.
_________________
VULTR - proovimiseks krediiti - igasugu serveri/pilve teenuseid
Kommentaarid: 6 loe/lisa Kasutajad arvavad:  :: 0 :: 0 :: 5
tagasi üles
vaata kasutaja infot saada privaatsõnum
näita postitusi alates eelmisest:   
uus teema   vasta Uudised »  Pressiteated »  Levira teeb otseülekandeid Eesti kaunimatest vaadetest
[vaata eelmist teemat] [vaata järgmist teemat]
 lisa lemmikuks
näita foorumit:  
 ignoreeri teemat 
sa ei või postitada uusi teemasid siia foorumisse
sa ei või vastata selle foorumi teemadele
sa ei või muuta oma postitusi selles foorumis
sa ei või kustutada oma postitusi selles foorumis
sa ei või vastata küsitlustele selles foorumis
sa ei saa lisada manuseid selles foorumis
sa võid manuseid alla laadida selles foorumis



Hinnavaatlus ei vastuta foorumis tehtud postituste eest.